Página 1 de 1
 
 

Mensaje Ayuda Yabause (emulador)-Radiant Silvergun Quemarlo A Un Cd.

#1  ttesheba 18 Febrero 2009, 04:49 PM

Hola gente una consulta he querido probas el mejor shotter de la consola Saturn el Radiant Silvergun
Para eso me baje y ya instale la versión de windows de el Emulador Yabause y me baje la Rom de el famoso shotter Radiant Silvergun.

Ahora mis dudas quiero ejecutar el game desde la unidad de cd, ya que el emulador me permite cargarlo.

Me baje el famoso Radiant Silvergun, esta comprimido.

Lo descomprimió en una carpeta y obtengo estos archivos:

Radiant Silvergun.ISO

Radiant Silvergun.Cue

Radiant Silvergun.mp3 (de estos archivos en mp3 tengo 19)

Mi Gran DUda es ver como quemo este game en un cd para poder jugarlo desde ahí.

Dispongo del Nero 7.

saludos y espero me ayuden.

+gracias
 



 
avatar
 ttesheba 
Recien llegado
Recien llegado
 
Registrado: Febrero 2009
Mensajes: 3
  • Volver arriba Página inferior
 

Mensaje Re: Ayuda Yabause (emulador)-Radiant Silvergun Quemarlo A Un

#2  FacundoARG 19 Febrero 2009, 04:14 AM

Hola, lo primero. Tenes que fijarte si el .cue tiene dentro mapeadas las pistas que son 20 (1 iso + 19 de audio). Puntualmente tienen que estar ee audio en wav. Asi que necesitas transformar esos MP3 en Wavs.

Despues, si todo funciona en orden, abré el Nero 7, y busca quemar ISO.

Dentro del explorador, selecciona el .cue ,  otro camino más sencillo dale doble click al .cue ( sólo si tienes asociado el archivo a nero)  

Por ejemplo aca tengo un .cue del Soviet Strike

FILE "SOVIETSTRIKE_01_MODE1_2048.iso" BINARY
  TRACK 01 MODE1/2048
      INDEX 01 00:00:00
      POSTGAP 00:02:00
FILE "SOVIETSTRIKE_02_AUDIO_2352.wav" WAVE
  TRACK 02 AUDIO
    PREGAP 00:02:00
    INDEX 01 00:00:00


Como verás solo tiene dos pistas, una de datos y otra de datos.
Si tenes algun problema, consulta.  
 




____________
SegaSaturn Developer Addict
 
avatar
argentina.png FacundoARG Sexo: Masculino
Colaborador SEGASATURNO
Colaborador SEGASATURNO
Professional Videogamer Coder
Donante Unreleased €
 
Registrado: Diciembre 2006
Ubicación: San Luis
Mensajes: 691
  • Volver arriba Página inferior
 

Mensaje Re: Ayuda Yabause (emulador)-Radiant Silvergun Quemarlo A Un

#3  darumo 19 Febrero 2009, 09:25 AM

hay CUE en que los mp3 vienen como tal y no hay que  pasarlos a WAV.
 



 
avatar
spain.png darumo Sexo: Masculino
Super Moderador
Super Moderador
Donante Unreleased €
 
Registrado: Septiembre 2005
Ubicación: Málaga
Mensajes: 2883
  • Volver arriba Página inferior
 

Mensaje Re: Ayuda Yabause (emulador)-Radiant Silvergun Quemarlo A Un

#4  ttesheba 19 Febrero 2009, 03:31 PM

FacundoARG escribió: [Ver mensaje]
Hola, lo primero. Tenes que fijarte si el .cue tiene dentro mapeadas las pistas que son 20 (1 iso + 19 de audio). Puntualmente tienen que estar ee audio en wav. Asi que necesitas transformar esos MP3 en Wavs.

Despues, si todo funciona en orden, abré el Nero 7, y busca quemar ISO.

Dentro del explorador, selecciona el .cue ,  otro camino más sencillo dale doble click al .cue ( sólo si tienes asociado el archivo a nero)  

Por ejemplo aca tengo un .cue del Soviet Strike

FILE "SOVIETSTRIKE_01_MODE1_2048.iso" BINARY
  TRACK 01 MODE1/2048
      INDEX 01 00:00:00
      POSTGAP 00:02:00
FILE "SOVIETSTRIKE_02_AUDIO_2352.wav" WAVE
  TRACK 02 AUDIO
    PREGAP 00:02:00
    INDEX 01 00:00:00


Como verás solo tiene dos pistas, una de datos y otra de datos.
Si tenes algun problema, consulta.  


  Hola Facundo que bien un Argentino por estos lados te envie un PM.
saludos
 



 
avatar
 ttesheba 
Recien llegado
Recien llegado
 
Registrado: Febrero 2009
Mensajes: 3
  • Volver arriba Página inferior
 

Mensaje Re: Ayuda Yabause (emulador)-Radiant Silvergun Quemarlo A Un

#5  ttesheba 19 Febrero 2009, 03:33 PM

darumo escribió: [Ver mensaje]
hay CUE en que los mp3 vienen como tal y no hay que  pasarlos a WAV.


Gracias darumo por la respuesta y por explicarme y sacarme de dudas.

saludos ahora vere si puedo hacerme una Saturn.

ya les informare si la consigo.
 



 
avatar
 ttesheba 
Recien llegado
Recien llegado
 
Registrado: Febrero 2009
Mensajes: 3
  • Volver arriba Página inferior
 


Ocultar¿Este tema fue útil?
Compartir este tema
Correo a un amigo Facebook Twitter Windows Live Favorites MySpace del.icio.us Digg SlashDot google.com LinkedIn StumbleUpon Blogmarks Diigo reddit.com Blinklist co.mments.com
technorati.com DIGG ITA linkagogo.com meneame.net netscape.com newsvine.com yahoo.com Fai Informazione Ok Notizie Segnalo Bookmark IT fark.com feedmelinks.com spurl.net

Página 1 de 1