Estadísticas
Más popular • Artículos más votados • Últimos Artículos
Buscar • [Versión imprimible]  Pulse en una categoría para añadir un artículo
Grabación de CD's
Autor: FacundoARG
Fecha: 07 Octobre 2009, 08:27 AM
Categoría: General
Tipo: Recurso
Nombre del artículo: Grabación de CD's
Descripción: Como grabar cd's para Sega-CD ó SegaSaturn
A pedido de muchos y por ver cada 15 días 2(dos) ó 3(tres) post sobre lo mismo. Les traigo un tutorial de como grabar/quemar cd's para nuestras consolas.
Es válido tanto para Sega-CD como para SegaSaturn.

Rondando por la web (no les voy a decir donde ) se pueden encontrar varias formas de back-up, ó tambien pueden hacer los suyos.

Bien, en el 99% de los casos los formatos son:
  • ISO+Audio+CUE
  • ISO
  • BIN+CUE


Vamos por parte definendo los componentes, ISO, es un formato de imagen de CD/DVD exactamente igual al original.
El audio puede estar en mp3, ogg ó en su defecto wav. Si llegasemos a encontrar los primero 2(dos), debemos transformarlos a wav sin compresión.

El .CUE (cue sheet) es el archivo que describe el contenido del correspondiente .iso. Lo que describe son las pistas del CD, indicando cual es la de datos y las de audios, determinando el tiempo de cada pista.

El .BIN, es igual a un (ISO+WAV) ocupa lo mismo con la diferencia que esta en binario y obligadamente necesitamos el .cue, para determinar donde comienza y termina cada pista.
Sino nuestro Software no sabra donde grabar/quemar cada pista.




Ejemplo ISO+OGG+CUE

user_1077_iso_ogg_cue

Como podemos ver tenemos el Need For Speed en la versión NTSC-U. Como no me hace falta cambiarle la región (tengo un Saturn USA) lo dejo como está.

Les muestro como es el .cue del NFS

Código: [Ocultar]
  1. FILE "01.iso" BINARY  
  2. TRACK 01 MODE1/2048  
  3. INDEX 01 00:00:00  
  4. POSTGAP 00:02:00  
  5. FILE "02.wav" WAVE  
  6. TRACK 02 AUDIO  
  7. PREGAP 00:02:00  
  8. INDEX 01 00:00:00  
  9. FILE "03.wav" WAVE  
  10. TRACK 03 AUDIO  
  11. INDEX 01 00:00:00  
  12. FILE "04.wav" WAVE  
  13. TRACK 04 AUDIO  
  14. INDEX 01 00:00:00  
  15. FILE "05.wav" WAVE  
  16. TRACK 05 AUDIO  
  17. INDEX 01 00:00:00  
  18. FILE "06.wav" WAVE  
  19. TRACK 06 AUDIO  
  20. INDEX 01 00:00:00  
  21. FILE "07.wav" WAVE  
  22. TRACK 07 AUDIO  
  23. INDEX 01 00:00:00  
  24. FILE "08.wav" WAVE  
  25. TRACK 08 AUDIO  
  26. INDEX 01 00:00:00  
  27. FILE "09.wav" WAVE  
  28. TRACK 09 AUDIO  
  29. INDEX 01 00:00:00  
  30. FILE "10.wav" WAVE  
  31. TRACK 10 AUDIO  
  32. INDEX 01 00:00:00  
  33. FILE "11.wav" WAVE  
  34. TRACK 11 AUDIO  
  35. INDEX 01 00:00:00 


Vemos que el primer track es el de los datos del juego y los restantes son de audio. Recuerden cambiar los ogg en wav




Ejemplo BIN+CUE

user_1077_bin_cue

Bien ahora como ven en la imgen, tengo muchos .bin con sus respectivos .cue; voy a elegir el Bust A Move 3(E); como es región Europea le voy a tener que cambiar la rengio a NTSC-U con el Software de Darumo .
Abro la imagen, en este caso el .bin; y cambio la región a U-USA.

user_1077_region_bin_cue

Código: [Ocultar]
  1. FILE "Bust a Move 3 (E).bin" BINARY  
  2. TRACK 01 MODE1/2352  
  3. INDEX 01 00:00:00  
  4. TRACK 02 AUDIO  
  5. PREGAP 00:02:00  
  6. INDEX 01 02:57:45  
  7. TRACK 03 AUDIO  
  8. INDEX 01 03:05:59  
  9. TRACK 04 AUDIO  
  10. INDEX 01 04:21:61  
  11. TRACK 05 AUDIO  
  12. INDEX 01 05:56:11  
  13. TRACK 06 AUDIO  
  14. INDEX 01 07:30:45  
  15. TRACK 07 AUDIO  
  16. INDEX 01 08:01:24  
  17. TRACK 08 AUDIO  
  18. INDEX 01 08:50:45  
  19. TRACK 09 AUDIO  
  20. INDEX 01 13:15:03  
  21. TRACK 10 AUDIO  
  22. INDEX 01 17:51:00  
  23. TRACK 11 AUDIO  
  24. INDEX 01 22:18:29  
  25. TRACK 12 AUDIO  
  26. INDEX 01 26:40:49  
  27. TRACK 13 AUDIO  
  28. INDEX 01 26:51:59  
  29. TRACK 14 AUDIO  
  30. INDEX 01 27:46:14  
  31. TRACK 15 AUDIO  
  32. INDEX 01 27:55:30  
  33. TRACK 16 AUDIO  
  34. INDEX 01 28:07:51 


Si se habran dado cuenta, que el .cue para el formato .bin es muy importante ya que marca cuanto ocupa cada pista y ademas que el formato de bytes por sector es distinto; si tienen un .bin sin su .cue no pueden grabar el juego .




Por último, llega la hora de grabar el juego. Personalmente uso el imgburn que es freeware.
Lo recomendable es hacerlo en 1x ó 2x, para ambas consolas (Sega-CD ó SegaSaturn); de esta forma el lente tendrá más vida (mi SegaSaturn es modelo '95 y lee como si la hubiese comprado ayer ) tengo un caso del juego Alone in the Dark que lo hize a 4x para probar y los loadings son eternos y a veces baja el framerate un poco .
  

Usuarios pueden comentar
Re: [Biblioteca] Grabación De CD's 
Maestro admirable Maestro!!!!!!!!




 
de donde me bajo los juegos de saturn




 
samuel escribió: [Ver mensaje]
de donde me bajo los juegos de saturn


No podes pedir información sobre ese tema en el foro.

Leete las normas




Re: [Biblioteca] Grabación De CD's 
como le cambio la region al dragon force lo tengo en j y mi consola es Europea me seria de gran ayuda porque no soy capaz de conseguir que el cd arranque la saturn que tengo no tiene el chip tiene hecho el truco de cambiar el cd y antes tenia ese juego original pero mi sobrino me lo estropeo ojala pueda conseguir jugar a ese juego otra vez y aver si lo traducimos al castellano seria la ostia ya que no es muy facil jugar en ingles pero si pudiera jugar me daria igual como si jugara en japo solo quiero recordar los tiempos en que solo me dedicaba a ir al colegio y reventar mi nueva sega saturn que lastima que se dejara de fabricar tan pronto poque me encantaba esta consola y me encanta esparo me podais ayudar un saludo y gracias




Re: [Biblioteca] Grabación De CD's 
samuel escribió: [Ver mensaje]
como le cambio la region al dragon force lo tengo en j y mi consola es Europea me seria de gran ayuda porque no soy capaz de conseguir que el cd arranque la saturn que tengo no tiene el chip tiene hecho el truco de cambiar el cd y antes tenia ese juego original pero mi sobrino me lo estropeo ojala pueda conseguir jugar a ese juego otra vez y aver si lo traducimos al castellano seria la ostia ya que no es muy facil jugar en ingles pero si pudiera jugar me daria igual como si jugara en japo solo quiero recordar los tiempos en que solo me dedicaba a ir al colegio y reventar mi nueva sega saturn que lastima que se dejara de fabricar tan pronto poque me encantaba esta consola y me encanta esparo me podais ayudar un saludo y gracias


bien para cambiarle la region a tu juego lo primero que debes hacer es crear una imagen del cd osea una iso lo podes hacer con el imgburn yo lo uso siempre hay una opcion que dice create image file from disc que te crea la imagen exacta de tu cd despues bajas el software para cambiar las regiones que ha hecho darumo que lo encuentras en el tutorial que escribi con ese software podes editar y le pones la region europea y lo quemas a 2x como explique en el tutorial cualquier otra consulta estamos para ayudar




 
muchas gracias aver si esta vez lo consigo xd




Re: [Biblioteca] Grabación De CD's 
EXCELENTE APORTE


Yo soy neófito en el asunto de la grabación de CD , muy buena esta Guía
Muchas Gracias




Re: [Biblioteca] Grabación De CD's 
La verdad que FacuArg es genial tu aporte. Tengo un problemita. Llego a mis manos una lista de juegos que estan en formato .RAR y en su contenido se encuentran archivos con las extenciones .BIN+CUE o MDF+MDS. La verdad es que quiero disfrutarlos en mi consola. Grabar se, lo que no se es decifrar los archivos Bin+cue o mdf+mds. Tengo titulos originales de la SAturn y en el contenido del CD hay datos. WAW y demas.
Al venir estos datos Zipeados. Los descomprimo en una carpeta y dps me quedan estos dos archivos ahi en la nada. Necesito saber como obtengo la escencia. El juego que se haya oculto en ese BIN+CUE o MDF+MDS :(. GRacias




Re: [Biblioteca] Grabación De CD's 
Gracias uno hace lo que puede .
Retomando el tema, si tenes BIN+CUE no tendrias que tener problemas si leiste el tutorial porque es eso esta basado .
Osea, ¿cuando descomprimes del .RAR obtenes ambos archivos? si es así, tranquilamente podes grabarlo.
Ahora si lo que necesitas es comprobar que el juego realmente funciona, te recomiendo que instales Daemon Tools Lite (es gratuito) y montas el CD en una unidad virtual.

Los MDF+MDS son muy parecidos a los que mencioné antes, con la diferencia que son propietarios de Alcohol 120%. No todos los softwares son compatibles 100% con estos archivos, justamente el que imgburn (el que uso yo) no lo es aunque si aparece en la lista de compatibilidad.
La recomendación para este tipo de archivos es que bajes Alcohol 120% trial edition ó si lo tenes con la licencia paga mejor.

Si tenes algun otro problema, comentalo. Para eso estamos .





Re: [Biblioteca] Grabación De CD's 
Facu. Como lo solicitaste, probe grabar los el CUE+BIN con el Resident Evil. Cuando lo chanto en la Saturn. Pero como decias los MDF+MDS. Con el Alcohol 120% me fue de maravillas. Lo unico que no pude especificar fue la velocidad de Quemado (la mas baja fue de 8X). Consegui el imburn. La pregunta es. Soporta el formato cue como lo hace alcohol 120% con los MDF?




Navegación biblioteca 

No puede publicar nuevos artículos
No puede editar sus artículos
No puede eliminar sus artículos
No puede comentar artículos
No puede cualificar artículos
Artículos no necesitan aprobación
Artículo editado no necesita aprobación

Powered by Knowledge Base MOD, wGEric & Haplo © 2002-2005
PHPBB.com MOD